<?xml version="1.0" standalone="no"?>
<!DOCTYPE svg PUBLIC "-//W3C//DTD SVG 1.1//EN" "http://www.w3.org/Graphics/SVG/1.1/DTD/svg11.dtd" >
<svg xmlns="http://www.w3.org/2000/svg">
<metadata></metadata>
<defs>
<font id="franklin_gothic_medium_condRg" horiz-adv-x="1046" >
<font-face units-per-em="2048" ascent="1638" descent="-410" />
<missing-glyph horiz-adv-x="382" />
<glyph horiz-adv-x="0" />
<glyph unicode="&#xd;" horiz-adv-x="382" />
<glyph unicode=" "  horiz-adv-x="382" />
<glyph unicode="&#x09;" horiz-adv-x="382" />
<glyph unicode="&#xa0;" horiz-adv-x="382" />
<glyph unicode="!" horiz-adv-x="698" d="M211 1365h277l-70 -997h-137zM235 0v251h228v-251h-228z" />
<glyph unicode="&#x22;" horiz-adv-x="1047" d="M261 1365h210l-32 -560h-145zM575 1365h210l-32 -560h-146z" />
<glyph unicode="#" d="M19 426l23 140h198l45 264h-198l22 139h198l67 396h147l-66 -396h227l66 396h147l-66 -396h198l-23 -139h-198l-45 -264h198l-23 -140h-198l-71 -426h-148l72 426h-227l-72 -426h-147l72 426h-198zM387 566h227l45 264h-227z" />
<glyph unicode="$" d="M93 368l179 61q43 -191 201 -221v407q-330 91 -330 365q0 129 80 234t244 126v135h125v-135q260 -26 333 -276l-161 -67q-33 89 -70 126t-109 56v-376q205 -55 286.5 -148t81.5 -232q0 -153 -92.5 -260.5t-268.5 -124.5v-174h-125v174q-297 33 -374 330zM335 1006 q0 -127 137 -169v339q-137 -35 -137 -170zM585 206q174 26 174 188q0 148 -174 188v-376z" />
<glyph unicode="%" horiz-adv-x="1395" d="M87 1024q0 169 73.5 261t195.5 92q120 0 194 -90.5t74 -262.5q0 -169 -73.5 -261t-194.5 -92t-195 91t-74 262zM246 1024q0 -227 109 -227q110 0 110 227q0 228 -109 228q-110 0 -110 -228zM299 0l666 1365h135l-666 -1365h-135zM771 341q0 170 74 261.5t194 91.5 q121 0 195 -92t74 -261t-73.5 -261t-195.5 -92q-121 0 -194.5 92t-73.5 261zM930 336q0 -222 109 -222q110 0 110 227q0 228 -110 228q-109 0 -109 -233z" />
<glyph unicode="&#x26;" horiz-adv-x="1291" d="M121 377q0 266 297 404q-119 185 -119 314q0 117 89.5 206t232.5 89q144 0 225.5 -84.5t81.5 -211.5q0 -215 -249 -355l233 -336q79 124 120 359l169 -36q-50 -276 -184 -466q74 -92 144 -92q23 0 63 8v-176q-63 -18 -108 -18q-129 0 -235 134q-157 -141 -349 -141 q-198 0 -304.5 117.5t-106.5 284.5zM337 388q0 -107 61.5 -175t161.5 -68q129 0 223 106l-277 403q-169 -101 -169 -266zM498 1100q0 -96 91 -237q159 92 159 233q0 62 -34 101.5t-89 39.5q-53 0 -90 -37t-37 -100z" />
<glyph unicode="'" horiz-adv-x="698" d="M244 1365h210l-32 -560h-145z" />
<glyph unicode="(" horiz-adv-x="523" d="M93 512q0 466 276 853h166q-234 -387 -234 -853q0 -468 234 -854h-166q-276 397 -276 854z" />
<glyph unicode=")" horiz-adv-x="523" d="M-12 -342q234 387 234 854q0 466 -234 853h166q276 -388 276 -853q0 -466 -276 -854h-166z" />
<glyph unicode="*" d="M176 897l236 105l-236 106l71 137l223 -150l-22 270h151l-23 -270l224 150l71 -137l-236 -106l236 -105l-71 -136l-224 149l23 -270h-151l22 270l-223 -149z" />
<glyph unicode="+" d="M104 599v167h332v335h174v-335h331v-167h-331v-335h-174v335h-332z" />
<glyph unicode="," horiz-adv-x="489" d="M120 -289l125 289h-105v258h228v-246l-149 -301h-99z" />
<glyph unicode="-" horiz-adv-x="593" d="M80 429v167h432v-167h-432z" />
<glyph unicode="." horiz-adv-x="489" d="M130 0v258h228v-258h-228z" />
<glyph unicode="/" horiz-adv-x="977" d="M-31 -342l754 1707h156l-754 -1707h-156z" />
<glyph unicode="0" d="M78 666q0 383 114 553.5t331 170.5q445 0 445 -691q0 -382 -113.5 -553t-331.5 -171q-445 0 -445 691zM311 683q0 -326 59 -433t153 -107q107 0 159.5 121.5t52.5 418.5q0 300 -53.5 420t-158.5 120q-104 0 -158 -118.5t-54 -421.5z" />
<glyph unicode="1" d="M232 910v210q176 96 299 260h165v-1212h222v-168h-680v168h237v935q-92 -111 -243 -193z" />
<glyph unicode="2" d="M67 0v196q397 342 506.5 498t109.5 281q0 100 -51.5 164t-139.5 64q-187 0 -222 -276l-203 43q36 206 149.5 313t289.5 107q192 0 301 -113t109 -289q0 -204 -157 -388t-452 -402h617l-10 -198h-847z" />
<glyph unicode="3" d="M40 341l194 46q50 -233 245 -233q89 0 154 58.5t65 185.5q0 100 -59 163.5t-217 63.5h-86v167h86q88 0 134.5 15t80.5 65.5t34 130.5q0 98 -50 156t-139 58q-165 0 -215 -203l-190 44q94 332 421 332q187 0 293.5 -98.5t106.5 -268.5q0 -216 -213 -305q251 -68 251 -335 q0 -190 -124 -299t-319 -109q-175 0 -297.5 86.5t-155.5 279.5z" />
<glyph unicode="4" d="M62 326v166l492 898h260v-891h171v-173h-171v-326h-220v326h-532zM241 491h364v699z" />
<glyph unicode="5" d="M85 327l201 49q47 -214 231 -214q224 0 224 290q0 131 -55.5 204t-162.5 73q-151 0 -214 -150l-170 36l43 750h710l-21 -198h-519l-20 -379q95 127 252 127q171 0 274 -120t103 -335q0 -230 -123.5 -357.5t-326.5 -127.5q-161 0 -278 89t-148 263z" />
<glyph unicode="6" d="M110 651q0 359 126 549t342 190q142 0 247 -79t146 -252l-188 -59q-48 215 -208 215q-128 0 -189.5 -132.5t-67.5 -404.5q89 202 291 202q156 0 265 -120.5t109 -324.5q0 -208 -115.5 -334t-305.5 -126q-201 0 -326.5 164t-125.5 512zM343 428q0 -121 59 -199.5 t159 -78.5q202 0 202 280q0 137 -54 206t-144 69q-108 0 -165 -79.5t-57 -197.5z" />
<glyph unicode="7" d="M144 1167l18 198h788v-159q-170 -218 -271.5 -540t-101.5 -666h-239q0 625 410 1167h-604z" />
<glyph unicode="8" d="M69 347q0 231 254 347q-207 120 -207 322q0 160 109.5 267t309.5 107q192 0 296.5 -97.5t104.5 -250.5q0 -200 -213 -304q255 -123 255 -364q0 -170 -123.5 -284.5t-342.5 -114.5q-216 0 -329.5 103t-113.5 269zM273 361q0 -106 70 -165t179 -59q101 0 169.5 55.5 t68.5 148.5q0 81 -56 142.5t-220 126.5q-211 -89 -211 -249zM333 1048q0 -156 220 -238q186 93 186 229q0 83 -55.5 138.5t-148.5 55.5q-88 0 -145 -51.5t-57 -133.5z" />
<glyph unicode="9" d="M66 932q0 202 116 330t310 128q441 0 441 -645q0 -770 -466 -770q-146 0 -236 67.5t-142 231.5l195 58q44 -182 193 -182q127 0 182.5 133t60.5 381q-91 -180 -279 -180q-157 0 -266 123t-109 325zM284 939q0 -123 55 -195.5t153 -72.5q100 0 154 79t54 193 q0 120 -55.5 196t-151.5 76q-92 0 -150.5 -71.5t-58.5 -204.5z" />
<glyph unicode=":" horiz-adv-x="488" d="M130 0v258h228v-258h-228zM130 752v258h228v-258h-228z" />
<glyph unicode=";" horiz-adv-x="489" d="M120 -289l125 289h-105v258h228v-246l-149 -301h-99zM140 752v258h228v-258h-228z" />
<glyph unicode="&#x3c;" d="M59 584v196l887 441v-230l-641 -310l640 -310l1 -229z" />
<glyph unicode="=" d="M104 459v166h837v-166h-837zM104 740v166h837v-166h-837z" />
<glyph unicode="&#x3e;" d="M100 142v230l642 310l-641 311l-1 228l887 -442v-196z" />
<glyph unicode="?" horiz-adv-x="1012" d="M78 966q38 424 414 424q181 0 286 -102t105 -275q0 -86 -36 -171.5t-169 -194.5q-91 -75 -110.5 -117t-19.5 -112l1 -54h-189l1 42q0 147 23 205t114 136q90 77 124 131.5t34 138.5q0 96 -47.5 145t-129.5 49q-191 0 -207 -283zM343 0v246h223v-246h-223z" />
<glyph unicode="@" horiz-adv-x="1221" d="M15 668q0 323 175 528t459 205q253 0 405.5 -163.5t152.5 -450.5q0 -226 -96.5 -367t-235.5 -141q-122 0 -148 117q-59 -122 -178 -122q-99 0 -160.5 89t-61.5 242q0 192 83.5 320t208.5 128q115 0 162 -126l15 111h120l-59 -423q-13 -95 -13 -135q0 -69 50 -69 q73 0 124 100t51 259q0 245 -115.5 378t-307.5 133q-215 0 -349 -172.5t-134 -435.5q0 -259 137 -422t371 -163q193 0 365 107l46 -110q-208 -118 -418 -118q-290 0 -469.5 188t-179.5 513zM485 608q0 -86 26 -135t69 -49q68 0 104 92t36 214q0 173 -93 173q-62 0 -102 -83 t-40 -212z" />
<glyph unicode="A" horiz-adv-x="1012" d="M-8 0l395 1365h253l366 -1365h-229l-86 342h-399l-84 -342h-216zM337 520h309l-155 625z" />
<glyph unicode="B" horiz-adv-x="1116" d="M131 0v1365h413q156 0 237 -25t137 -111.5t56 -210.5q0 -227 -203 -299q245 -77 245 -343q0 -151 -96.5 -263.5t-369.5 -112.5h-419zM352 181h182q250 0 250 221q0 86 -53 154t-216 68h-163v-443zM352 799h143q151 0 199 55.5t48 143.5q0 103 -55 147.5t-170 44.5h-165 v-391z" />
<glyph unicode="C" horiz-adv-x="1081" d="M85 677q0 345 129 529t372 184q376 0 441 -466l-210 -31q-34 310 -230 310q-262 0 -262 -539q0 -502 262 -502q105 0 156.5 76.5t73.5 220.5l208 -29q-64 -455 -447 -455q-249 0 -371 191t-122 511z" />
<glyph unicode="D" horiz-adv-x="1151" d="M132 0v1365h307q223 0 356.5 -79t202 -235t68.5 -346q0 -200 -61.5 -356.5t-188 -252.5t-360.5 -96h-324zM358 181h94q197 0 286 136.5t89 364.5q0 502 -375 502h-94v-1003z" />
<glyph unicode="E" horiz-adv-x="942" d="M131 0v1365h782v-181h-556v-390h436v-182h-436v-427h565v-185h-791z" />
<glyph unicode="F" horiz-adv-x="872" d="M131 0v1365h758v-181h-532v-408h426v-181h-426v-595h-226z" />
<glyph unicode="G" horiz-adv-x="1152" d="M85 664q0 335 127.5 530.5t391.5 195.5q368 0 440 -416l-204 -51q-36 176 -97 228t-144 52q-275 0 -275 -519q0 -522 282 -522q234 0 234 357h-245v181h456v-710h-120l-30 173q-104 -188 -329 -188q-229 0 -358 185.5t-129 503.5z" />
<glyph unicode="H" horiz-adv-x="1116" d="M131 0v1365h226v-566h402v566h226v-1365h-226v608h-402v-608h-226z" />
<glyph unicode="I" horiz-adv-x="488" d="M131 0v1365h226v-1365h-226z" />
<glyph unicode="J" horiz-adv-x="628" d="M-33 0v187q70 -19 132 -19q73 0 110.5 27t52 82.5t14.5 238.5v849h226v-849q0 -211 -24 -314t-103 -165t-227 -62q-76 0 -181 25z" />
<glyph unicode="K" horiz-adv-x="1047" d="M131 0v1365h226v-651l412 651h239l-352 -501l412 -864h-245l-305 677l-161 -229v-448h-226z" />
<glyph unicode="L" horiz-adv-x="837" d="M131 0v1365h226v-1174h483v-191h-709z" />
<glyph unicode="M" horiz-adv-x="1465" d="M126 0v1365h335l272 -984l279 984h321v-1365h-212v1165l-324 -1165h-164l-318 1166v-1166h-189z" />
<glyph unicode="N" horiz-adv-x="1151" d="M124 0v1365h266l449 -984v984h189v-1365h-211l-504 1093v-1093h-189z" />
<glyph unicode="O" horiz-adv-x="1152" d="M86 683q0 348 126 527.5t366 179.5q237 0 363 -178.5t126 -528.5t-125 -529t-363 -179q-239 0 -366 178.5t-127 529.5zM323 683q0 -238 55 -380t201 -142q137 0 194 137.5t57 384.5q0 243 -56.5 382.5t-197.5 139.5t-197 -140t-56 -382z" />
<glyph unicode="P" horiz-adv-x="1012" d="M131 0v1365h338q162 0 263 -30.5t170 -135t69 -251.5q0 -135 -56 -232t-150.5 -140t-290.5 -43h-117v-533h-226zM357 714h112q150 0 207.5 56t57.5 182q0 94 -38 152.5t-83.5 72t-143.5 13.5h-112v-476z" />
<glyph unicode="Q" horiz-adv-x="1151" d="M85 683q0 348 126 527.5t366 179.5q239 0 364 -179.5t125 -527.5q0 -549 -312 -673q0 -75 25.5 -111t108.5 -36q49 0 103 18v-172q-63 -24 -133 -24q-279 0 -281 292q-228 0 -360 170t-132 536zM323 683q0 -248 56.5 -385t195.5 -137q141 0 196.5 138.5t55.5 383.5 q0 176 -28 296t-82.5 173t-141.5 53q-139 0 -195.5 -137t-56.5 -385z" />
<glyph unicode="R" horiz-adv-x="1081" d="M131 0v1365h411q223 0 329 -101t106 -290q0 -252 -209 -357l259 -617h-245l-213 570h-212v-570h-226zM357 745h173q116 0 170.5 64t54.5 167q0 214 -223 214h-175v-445z" />
<glyph unicode="S" horiz-adv-x="1047" d="M48 357l202 57q53 -252 276 -252q109 0 165.5 56.5t56.5 139.5q0 61 -39 113t-194 111q-164 62 -236.5 105t-123.5 127t-51 191q0 163 113.5 274t301.5 111q333 0 425 -330l-193 -67q-34 108 -89.5 159.5t-151.5 51.5q-89 0 -137.5 -52.5t-48.5 -120.5q0 -75 54.5 -119.5 t217.5 -106.5q139 -53 214 -101t121.5 -128.5t46.5 -186.5q0 -172 -121.5 -293t-340.5 -121q-378 0 -468 382z" />
<glyph unicode="T" horiz-adv-x="768" d="M-32 1173v192h833v-192h-305v-1173h-226v1173h-302z" />
<glyph unicode="U" horiz-adv-x="1116" d="M121 518v847h221v-847q0 -142 15 -209.5t68.5 -107t144.5 -39.5q86 0 134 32.5t68 92t20 235.5v843h203v-832q0 -200 -28.5 -308t-132 -179t-277.5 -71q-135 0 -234.5 44.5t-150.5 144t-51 354.5z" />
<glyph unicode="V" horiz-adv-x="942" d="M-8 1365h238l259 -1089l260 1089h200l-360 -1368l-245 3z" />
<glyph unicode="W" horiz-adv-x="1430" d="M5 1365h229l185 -1022l214 1022h196l212 -1023l194 1023h191l-287 -1368h-204l-216 1002l-212 -1002h-208z" />
<glyph unicode="X" horiz-adv-x="907" d="M-28 0l365 707l-321 658h251l196 -435l218 435h211l-316 -620l359 -745h-254l-232 523l-263 -523h-214z" />
<glyph unicode="Y" horiz-adv-x="837" d="M-65 1365h245l251 -569l255 569h216l-379 -788v-577h-225v577z" />
<glyph unicode="Z" horiz-adv-x="872" d="M1 0v175l599 1005h-562v185h819v-158l-604 -1017h620v-190h-872z" />
<glyph unicode="[" horiz-adv-x="523" d="M147 -342v1707h354v-115h-160v-1477h160v-115h-354z" />
<glyph unicode="\" horiz-adv-x="977" d="M98 1365h156l754 -1707h-156z" />
<glyph unicode="]" horiz-adv-x="523" d="M22 -227h161v1477h-161v115h354v-1707h-354v115z" />
<glyph unicode="^" horiz-adv-x="1024" d="M22 703l338 669h305l338 -669h-244l-247 484l-246 -484h-244z" />
<glyph unicode="_" horiz-adv-x="1024" d="M0 -107h1024v-208h-1024v208z" />
<glyph unicode="`" horiz-adv-x="1024" d="M237 1353l108 136l321 -281l-76 -77z" />
<glyph unicode="a" horiz-adv-x="942" d="M72 267q0 165 113.5 261t393.5 96q14 0 44 -1v41q0 108 -32.5 163t-116.5 55q-137 0 -164 -158l-201 25q20 135 124.5 210t256.5 75q136 0 217.5 -54.5t102.5 -129.5t21 -227v-344q0 -209 18 -279h-197q-13 55 -13 168q-95 -193 -284 -193q-128 0 -205.5 78.5 t-77.5 213.5zM290 283q0 -155 135 -155q79 0 138.5 84t59.5 231v49q-40 4 -61 4q-272 0 -272 -213z" />
<glyph unicode="b" horiz-adv-x="977" d="M122 0v1365h207v-471q89 134 235 134q158 0 249.5 -134.5t91.5 -362.5q0 -552 -374 -552q-176 0 -245 158q-23 -57 -46 -137h-118zM329 427q0 -291 178 -291q92 0 134 88t42 295q0 199 -42 277.5t-130 78.5q-77 0 -129.5 -70t-52.5 -189v-189z" />
<glyph unicode="c" horiz-adv-x="837" d="M73 502q0 260 101 396t294 136q311 0 355 -364l-201 -22q-15 132 -51 176.5t-102 44.5q-93 0 -135 -85.5t-42 -300.5q0 -336 177 -336q136 0 153 219l201 -18q-41 -373 -369 -373q-194 0 -287.5 140t-93.5 387z" />
<glyph unicode="d" horiz-adv-x="977" d="M72 500q0 249 94.5 388t251.5 139q165 0 231 -134v472h207v-1365h-191v153q-73 -171 -251 -171q-171 0 -256.5 143t-85.5 375zM294 519q0 -380 176 -380q68 0 123.5 63t55.5 219v173q0 156 -59 218.5t-122 62.5q-174 0 -174 -356z" />
<glyph unicode="e" horiz-adv-x="907" d="M73 490q0 260 110 402t294 142q129 0 217 -71t124 -186.5t39 -302.5h-571q0 -205 55.5 -273.5t139.5 -68.5q140 0 177 189l190 -25q-75 -321 -374 -321q-183 0 -292 131t-109 384zM291 615h353q0 267 -174 267q-163 0 -179 -267z" />
<glyph unicode="f" horiz-adv-x="523" d="M20 842v168h132q3 180 31 248.5t91.5 107.5t172.5 39q63 0 123 -12v-166q-43 7 -79 7q-62 0 -91.5 -23t-36.5 -58.5t-7 -142.5h181v-168h-181v-842h-204v842h-132z" />
<glyph unicode="g" horiz-adv-x="907" d="M55 -119q0 146 147 195q-110 61 -110 165q0 132 149 203q-130 86 -130 259q0 148 99 239.5t255 91.5q102 0 191 -44q16 105 60.5 145.5t129.5 40.5q25 0 62 -5v-153q-29 6 -48 6q-92 0 -109 -111q76 -96 76 -217q0 -137 -95 -231t-256 -94q-61 0 -128 18q-76 -29 -76 -88 q0 -51 40.5 -66t214.5 -24q150 -8 226 -28t121.5 -81.5t45.5 -161.5q0 -154 -119 -233.5t-339 -79.5q-212 0 -309.5 69.5t-97.5 184.5zM244 -87q0 -72 56 -106t186 -34q240 0 240 139q0 68 -45.5 93.5t-179.5 29.5q-113 4 -170 7q-87 -43 -87 -129zM326 697q0 -194 144 -194 q142 0 142 196q0 198 -137 198q-149 0 -149 -200z" />
<glyph unicode="h" horiz-adv-x="942" d="M122 0v1365h209v-489q71 158 241 158q87 0 146.5 -40t83 -106.5t23.5 -251.5v-636h-208v636q0 158 -36 194.5t-89 36.5q-161 0 -161 -289v-578h-209z" />
<glyph unicode="i" horiz-adv-x="454" d="M118 1146v221h218v-221h-218zM123 0v1010h208v-1010h-208z" />
<glyph unicode="j" horiz-adv-x="454" d="M-52 -175q40 -10 75 -10q69 0 86.5 39t17.5 185v971h208v-974q0 -155 -15 -229t-75.5 -122t-168.5 -48q-58 0 -128 15v173zM122 1146v221h219v-221h-219z" />
<glyph unicode="k" horiz-adv-x="872" d="M122 0v1365h209v-807l326 452h206l-261 -349l290 -661h-225l-202 506l-134 -185v-321h-209z" />
<glyph unicode="l" horiz-adv-x="454" d="M123 0v1365h209v-1365h-209z" />
<glyph unicode="m" horiz-adv-x="1430" d="M122 0v1010h193v-154q74 178 249 178q192 0 231 -188q71 188 256 188q92 0 153.5 -40t85.5 -106t24 -249v-639h-209v622q0 143 -24.5 194t-98.5 51q-158 0 -158 -275v-592h-209v615q0 131 -10.5 169.5t-39 60.5t-73.5 22q-87 0 -124 -65.5t-37 -214.5v-587h-209z" />
<glyph unicode="n" horiz-adv-x="942" d="M123 0v1010h193v-156q70 180 250 180q102 0 164.5 -49t79 -117.5t16.5 -216.5v-651h-208v640q0 132 -23 179.5t-98 47.5q-78 0 -121.5 -60.5t-43.5 -240.5v-566h-209z" />
<glyph unicode="o" horiz-adv-x="942" d="M73 505q0 529 400 529q182 0 288.5 -129t106.5 -390q0 -540 -400 -540q-184 0 -289.5 130.5t-105.5 399.5zM295 505q0 -190 41 -281t135 -91q93 0 134.5 92.5t41.5 279.5q0 213 -47.5 292.5t-128.5 79.5q-176 0 -176 -372z" />
<glyph unicode="p" horiz-adv-x="977" d="M122 -342v1352h192v-166q79 183 250 183q153 0 247 -133.5t94 -380.5q0 -221 -85.5 -376t-265.5 -155q-144 0 -225 123v-447h-207zM329 422q0 -97 14.5 -151.5t59.5 -93t102 -38.5q178 0 178 374q0 362 -174 362q-77 0 -128.5 -74t-51.5 -211v-168z" />
<glyph unicode="q" horiz-adv-x="977" d="M72 487q0 275 100 408t257 133q167 0 247 -168q34 62 65 157h114q-4 -84 -4 -235v-1124h-209v471q-83 -147 -236 -147q-142 0 -238 127t-96 378zM293 510q0 -371 172 -371q69 0 123 80t54 243v131q0 135 -51.5 208.5t-124.5 73.5q-87 0 -130 -84.5t-43 -280.5z" />
<glyph unicode="r" horiz-adv-x="558" d="M123 0v1010h184v-226q84 247 252 247q16 0 38 -3v-217q-26 3 -42 3q-223 0 -223 -300v-514h-209z" />
<glyph unicode="s" horiz-adv-x="803" d="M34 269l177 33q34 -174 193 -174q81 0 120.5 40t39.5 95q0 38 -27 75.5t-151 77.5q-119 38 -179.5 71t-99.5 95.5t-39 141.5q0 129 94 219.5t243 90.5q253 0 326 -260l-163 -44q-45 152 -171 152q-58 0 -93.5 -36t-35.5 -89q0 -60 36 -88t165 -70q159 -53 229 -119.5 t70 -185.5q0 -134 -100 -226.5t-270 -92.5q-321 0 -364 294z" />
<glyph unicode="t" horiz-adv-x="558" d="M12 842v168h137l11 263l188 18v-281h193v-168h-193v-446q0 -118 6 -156.5t36 -63t100 -24.5q37 0 84 7v-166q-84 -18 -156 -18q-117 0 -179 45.5t-79 123.5t-17 238v460h-131z" />
<glyph unicode="u" horiz-adv-x="943" d="M116 364v646h209v-642q0 -134 22 -179.5t97 -45.5q93 0 130 81t37 300v486h208v-1010h-191v152q-81 -177 -257 -177q-90 0 -147.5 38t-82.5 108t-25 243z" />
<glyph unicode="v" horiz-adv-x="733" d="M-11 1010h205l189 -725l185 725h181l-286 -1010h-185z" />
<glyph unicode="w" horiz-adv-x="1151" d="M-2 1010h205l150 -694l145 694h183l144 -698l160 698h169l-250 -1010h-177l-153 700l-146 -700h-177z" />
<glyph unicode="x" horiz-adv-x="733" d="M-35 0l293 524l-261 486h231l148 -294l154 294h194l-255 -457l298 -553h-232l-183 357l-190 -357h-197z" />
<glyph unicode="y" horiz-adv-x="733" d="M-1 1010h209l176 -694l181 694h188l-328 -1074q-36 -117 -66 -173t-85 -90.5t-142 -34.5q-52 0 -107 14v166q40 -7 73 -7q81 0 115 39.5t73 183.5z" />
<glyph unicode="z" horiz-adv-x="698" d="M30 0v158l410 694h-374v158h614v-127l-425 -725h429v-158h-654z" />
<glyph unicode="{" horiz-adv-x="523" d="M73 452v143q72 0 90.5 38t18.5 193v220q0 195 64 258t188 63q18 0 64 -2v-119q-79 -1 -101 -33.5t-22 -166.5v-216q0 -178 -22 -228t-103 -78q80 -29 102.5 -79t22.5 -228v-240q0 -133 21.5 -166.5t101.5 -33.5v-119q-54 -2 -60 -2q-136 0 -196 67.5t-60 253.5v244 q0 153 -18 192t-91 39z" />
<glyph unicode="|" horiz-adv-x="1024" d="M396 -341v1706h232v-1706h-232z" />
<glyph unicode="}" horiz-adv-x="523" d="M25 -223q79 0 101 33t22 167v240q0 177 21.5 227t103.5 80q-80 28 -102.5 78t-22.5 228v216q0 133 -22 165.5t-101 34.5v119q54 2 59 2q140 0 198.5 -70t58.5 -251v-220q0 -121 5 -155t30 -55t74 -21v-143q-49 0 -73.5 -20.5t-30 -54.5t-5.5 -156v-244q0 -195 -64 -258 t-188 -63q-18 0 -64 2v119z" />
<glyph unicode="~" horiz-adv-x="1365" d="M187 564q72 163 142 211.5t154 48.5q73 0 220 -61q136 -57 188 -57q99 0 166 122l121 -70q-112 -252 -314 -252q-62 0 -239 72q-113 46 -158 46q-95 0 -163 -137z" />
<glyph unicode="&#xa1;" horiz-adv-x="698" d="M211 -356l70 998h137l70 -998h-277zM235 758v252l228 -1v-251h-228z" />
<glyph unicode="&#xa2;" d="M168 677q0 205 77.5 343t238.5 158v187h119v-187q246 -33 286 -335l-176 -23q-16 159 -115 204v-650q96 37 115 201l176 -23q-38 -301 -286 -340v-223h-119v223q-160 24 -238 157t-78 308zM369 702q0 -262 120 -324v639q-120 -56 -120 -315z" />
<glyph unicode="&#xa3;" d="M40 0v180h70q83 0 135 28t87 94t35 170q0 73 -15 165h-197v162h171q-23 140 -23 215q0 168 95.5 272t267.5 104q240 0 328 -218l-161 -99q-53 145 -166 145q-147 0 -147 -204q0 -46 14 -138l11 -77h260v-162h-239q8 -56 8 -106q0 -232 -168 -353h153q157 0 229 39 t120 144l162 -85q-48 -124 -108 -180t-145 -76t-258 -20h-519z" />
<glyph unicode="&#xa4;" horiz-adv-x="1047" d="M91 1018l118 118l142 -142q81 48 172 48q95 0 176 -50l141 141l115 -115l-141 -141q48 -80 48 -174q0 -90 -48 -172l142 -141l-119 -119l-141 141q-82 -47 -173 -47q-88 0 -173 48l-141 -141l-115 115l141 141q-50 82 -50 175t48 173zM348 703q0 -72 51.5 -123.5 t123.5 -51.5q73 0 124.5 51.5t51.5 123.5q0 73 -51.5 124t-124.5 51q-72 0 -123.5 -51.5t-51.5 -123.5z" />
<glyph unicode="&#xa5;" d="M55 1365h230l252 -612l260 612h193l-252 -544h227v-126h-283l-61 -140h344v-125h-344v-430h-203v430h-322v125h321l-64 140h-257v126h204z" />
<glyph unicode="&#xa6;" horiz-adv-x="1024" d="M396 314h232v-655h-232v655zM396 664v701h232v-701h-232z" />
<glyph unicode="&#xa7;" d="M119 -43l185 33q38 -185 222 -185q97 0 148.5 47t51.5 128t-51 123.5t-207 102.5q-169 65 -240.5 133.5t-71.5 191.5q0 177 165 286q-123 96 -123 255q0 140 95 229t253 89q297 0 366 -266l-173 -40q-44 160 -190 160q-78 0 -117.5 -44t-39.5 -107q0 -71 41 -108t189 -98 q157 -64 223.5 -131.5t66.5 -190.5q0 -159 -145 -276q157 -102 157 -283q0 -158 -110 -258t-291 -100q-334 0 -404 309zM339 583q0 -54 35 -98.5t182 -99.5q69 -26 83 -32q96 72 96 164q0 47 -35 93.5t-262 140.5q-99 -75 -99 -168z" />
<glyph unicode="&#xa8;" horiz-adv-x="1024" d="M244 1265q0 44 32.5 74t76.5 30q43 0 76 -29t33 -75q0 -45 -34 -73.5t-75 -28.5q-40 0 -74.5 28t-34.5 74zM562 1265q0 43 32.5 73.5t76.5 30.5t76.5 -30t32.5 -74q0 -46 -34 -74t-75 -28t-75 28.5t-34 73.5z" />
<glyph unicode="&#xa9;" horiz-adv-x="1600" d="M86 683q0 291 210 499t504 208t504 -208.5t210 -498.5q0 -291 -209.5 -499.5t-504.5 -208.5q-296 0 -505 207.5t-209 500.5zM235 683q0 -238 165.5 -405t399.5 -167q233 0 399 168t166 404q0 235 -166 403t-399 168t-399 -168t-166 -403zM484 678q0 207 86.5 318 t247.5 111q262 0 298 -293l-162 -21q-20 183 -135 183q-154 0 -154 -304q0 -282 154 -282q64 0 93.5 45t42.5 129l160 -19q-41 -286 -301 -286q-152 0 -241 106t-89 313z" />
<glyph unicode="&#xaa;" horiz-adv-x="628" d="M45 714q0 222 327 222q9 0 22 -1q0 66 -16 95t-65 29q-76 0 -90 -82l-155 18q41 178 254 178q92 0 146.5 -34t69 -82t14.5 -136v-199q0 -138 15 -176h-131q-7 41 -11 96q-69 -110 -190 -110q-83 0 -136.5 48.5t-53.5 133.5zM210 723q0 -77 70 -77q114 0 114 186 q-20 3 -36 3q-148 0 -148 -112z" />
<glyph unicode="&#xab;" horiz-adv-x="802" d="M89 525l193 320h117l-108 -320l108 -320h-117zM403 525l193 328h117l-108 -328l108 -327h-117z" />
<glyph unicode="&#xac;" d="M79 338v208h887v-546h-232v338h-655z" />
<glyph unicode="&#xad;" horiz-adv-x="593" d="M80 429v167h432v-167h-432z" />
<glyph unicode="&#xae;" horiz-adv-x="1600" d="M86 683q0 291 210 499t504 208t504 -208.5t210 -498.5q0 -291 -209.5 -499.5t-504.5 -208.5q-296 0 -505 207.5t-209 500.5zM235 683q0 -238 165.5 -405t399.5 -167q233 0 399 168t166 404q0 235 -166 403t-399 168t-399 -168t-166 -403zM524 273v819h276q293 0 293 -239 q0 -147 -131 -213l169 -367h-186l-137 333h-112v-333h-172zM696 730h97q130 0 130 126q0 112 -129 112h-98v-238z" />
<glyph unicode="&#xaf;" horiz-adv-x="1024" d="M0 1602v209h1024v-209h-1024z" />
<glyph unicode="&#xb0;" d="M204 1071q0 132 94 225.5t225 93.5q130 0 225 -92.5t95 -226.5q0 -132 -94.5 -225.5t-225.5 -93.5t-225 93.5t-94 225.5zM364 1071q0 -77 47.5 -130t111.5 -53q65 0 112 53t47 130q0 79 -47.5 131t-111.5 52q-65 0 -112 -53.5t-47 -129.5z" />
<glyph unicode="&#xb1;" d="M104 11v166h837v-166h-837zM104 599v167h332v335h174v-335h331v-167h-331v-325h-174v325h-332z" />
<glyph unicode="&#xb2;" horiz-adv-x="696" d="M44 1111q47 269 292 269q127 0 199.5 -70t72.5 -176q0 -214 -361 -444h367l-8 -144h-559v134q227 181 305.5 275t78.5 171q0 118 -105 118q-109 0 -125 -163z" />
<glyph unicode="&#xb3;" horiz-adv-x="696" d="M28 768l152 33q23 -138 140 -138q122 0 122 126q0 122 -156 122h-68v120h68q70 0 105 23t35 86q0 112 -103 112q-95 0 -124 -120l-148 32q63 216 283 216q125 0 195 -61.5t70 -161.5q0 -123 -127 -178q151 -52 151 -199q0 -113 -81.5 -180.5t-211.5 -67.5 q-261 0 -302 236z" />
<glyph unicode="&#xb4;" horiz-adv-x="1024" d="M414 1208l321 281l108 -136l-353 -222z" />
<glyph unicode="&#xb5;" d="M161 -341v1351h209v-545q0 -202 44 -267t109 -65q71 0 111.5 66t40.5 266v545h209v-1010h-176v109q-51 -134 -182 -134q-104 0 -156 97v-413h-209z" />
<glyph unicode="&#xb6;" d="M33 970q0 131 50 224t129 132t247 39h446v-1707h-137v1570h-101v-1570h-137v914h-77q-142 0 -226 32.5t-139 128t-55 237.5z" />
<glyph unicode="&#xb7;" horiz-adv-x="489" d="M130 397v258h228v-258h-228z" />
<glyph unicode="&#xb8;" horiz-adv-x="1024" d="M346 -345l28 73q82 -37 150 -37q81 0 81 63q0 78 -122 78q-16 0 -61 -2l58 170h98l-33 -95h28q91 0 133 -44.5t42 -102.5q0 -70 -56.5 -118t-148.5 -48q-98 0 -197 63z" />
<glyph unicode="&#xb9;" horiz-adv-x="696" d="M152 1065v153q116 56 195 155h126v-702h139v-125h-456v125h150v496q-70 -63 -154 -102z" />
<glyph unicode="&#xba;" horiz-adv-x="628" d="M49 853q0 320 266 320q130 0 197.5 -82.5t67.5 -232.5q0 -326 -266 -326q-132 0 -198.5 84t-66.5 237zM219 852q0 -201 96 -201q94 0 94 201q0 203 -95 203t-95 -203z" />
<glyph unicode="&#xbb;" horiz-adv-x="802" d="M89 198l108 327l-108 328h117l193 -328l-193 -327h-117zM403 198l108 327l-108 328h118l192 -328l-192 -327h-118z" />
<glyph unicode="&#xbc;" horiz-adv-x="1569" d="M112 1065v153q116 56 195 155h126v-702h139v-125h-456v125h150v496q-70 -63 -154 -102zM379 0l666 1365h146l-666 -1365h-146zM890 189v114l318 531h186v-518h106v-127h-106v-189h-167v189h-337zM1028 307h208v378z" />
<glyph unicode="&#xbd;" horiz-adv-x="1569" d="M135 1065v153q116 56 195 155h126v-702h139v-125h-456v125h150v496q-70 -63 -154 -102zM353 0l666 1365h146l-666 -1365h-146zM879 565q47 269 292 269q127 0 199.5 -70t72.5 -176q0 -214 -361 -444h367l-8 -144h-559v134q227 181 305.5 275t78.5 171q0 118 -105 118 q-109 0 -125 -163z" />
<glyph unicode="&#xbe;" horiz-adv-x="1569" d="M61 768l152 33q23 -138 140 -138q122 0 122 126q0 122 -156 122h-68v120h68q70 0 105 23t35 86q0 112 -103 112q-95 0 -124 -120l-148 32q63 216 283 216q125 0 195 -61.5t70 -161.5q0 -123 -127 -178q151 -52 151 -199q0 -113 -81.5 -180.5t-211.5 -67.5 q-261 0 -302 236zM379 0l666 1365h146l-666 -1365h-146zM879 189v114l318 531h186v-518h106v-127h-106v-189h-167v189h-337zM1017 307h208v378z" />
<glyph unicode="&#xbf;" horiz-adv-x="1012" d="M128 -3q0 86 37.5 172.5t167.5 193.5q86 70 108 111.5t22 119.5l-1 52h189q-2 -159 -11.5 -206t-38 -87t-123.5 -120q-123 -105 -123 -242q0 -94 47.5 -143.5t129.5 -49.5q193 0 207 283l194 -37q-36 -425 -414 -425q-182 0 -286.5 102.5t-104.5 275.5zM445 764v246 l223 -1v-245h-223z" />
<glyph unicode="&#xc0;" horiz-adv-x="1012" d="M-8 0l395 1365h253l366 -1365h-229l-86 342h-399l-84 -342h-216zM265 1710l108 136l321 -281l-76 -77zM337 520h309l-155 625z" />
<glyph unicode="&#xc1;" horiz-adv-x="1012" d="M-8 0l395 1365h253l366 -1365h-229l-86 342h-399l-84 -342h-216zM337 520h309l-155 625zM353 1557l321 281l108 -136l-353 -222z" />
<glyph unicode="&#xc2;" horiz-adv-x="1012" d="M-8 0l395 1365h253l366 -1365h-229l-86 342h-399l-84 -342h-216zM152 1501l357 275l358 -275l-178 -14l-180 122l-179 -122zM337 520h309l-155 625z" />
<glyph unicode="&#xc3;" horiz-adv-x="1012" d="M-8 0l395 1365h253l366 -1365h-229l-86 342h-399l-84 -342h-216zM203 1560q90 153 202 153q51 0 129 -45q74 -41 111 -41q48 0 91 75l85 -57q-89 -153 -204 -153q-53 0 -130 45q-70 40 -102 40q-49 0 -98 -74zM337 520h309l-155 625z" />
<glyph unicode="&#xc4;" horiz-adv-x="1012" d="M-8 0l395 1365h253l366 -1365h-229l-86 342h-399l-84 -342h-216zM253 1604q0 44 32.5 74t76.5 30q43 0 76 -29t33 -75q0 -45 -34 -73.5t-75 -28.5q-40 0 -74.5 28t-34.5 74zM337 520h309l-155 625zM571 1604q0 43 32.5 73.5t76.5 30.5t76.5 -30t32.5 -74q0 -46 -34 -74 t-75 -28t-75 28.5t-34 73.5z" />
<glyph unicode="&#xc5;" horiz-adv-x="1012" d="M-8 0l395 1365h253l366 -1365h-229l-86 342h-399l-84 -342h-216zM315 1643q0 80 56 135t132 55t132 -55t56 -135q0 -81 -58.5 -134t-129.5 -53q-70 0 -129 52.5t-59 134.5zM337 520h309l-155 625zM417 1644q0 -38 26.5 -62.5t59.5 -24.5t59.5 24.5t26.5 61.5 q0 38 -25.5 64t-60.5 26q-34 0 -60 -25.5t-26 -63.5z" />
<glyph unicode="&#xc6;" horiz-adv-x="1430" d="M-83 0l621 1365h870v-181h-548v-390h431v-182h-431v-427h551v-185h-772v374h-355l-161 -374h-206zM355 549h287v669z" />
<glyph unicode="&#xc7;" horiz-adv-x="1081" d="M85 677q0 345 129 529t372 184q376 0 441 -466l-210 -31q-34 310 -230 310q-262 0 -262 -539q0 -502 262 -502q105 0 156.5 76.5t73.5 220.5l208 -29q-59 -445 -433 -455l-25 -78q19 1 29 1q91 0 135.5 -45t44.5 -106q0 -72 -57.5 -122t-154.5 -50q-99 0 -202 65l28 77 q86 -38 155 -38q80 0 80 62q0 30 -21.5 49.5t-46.5 23t-118 5.5l54 162q-221 43 -314.5 235.5t-93.5 460.5z" />
<glyph unicode="&#xc8;" horiz-adv-x="942" d="M131 0v1365h782v-181h-556v-390h436v-182h-436v-427h565v-185h-791zM229 1702l108 136l321 -281l-76 -77z" />
<glyph unicode="&#xc9;" horiz-adv-x="942" d="M131 0v1365h782v-181h-556v-390h436v-182h-436v-427h565v-185h-791zM356 1565l321 281l108 -136l-353 -222z" />
<glyph unicode="&#xca;" horiz-adv-x="942" d="M131 0v1365h782v-181h-556v-390h436v-182h-436v-427h565v-185h-791zM168 1501l357 275l358 -275l-178 -14l-180 122l-179 -122z" />
<glyph unicode="&#xcb;" horiz-adv-x="942" d="M131 0v1365h782v-181h-556v-390h436v-182h-436v-427h565v-185h-791zM254 1614q0 44 32.5 74t76.5 30q43 0 76 -29t33 -75q0 -45 -34 -73.5t-75 -28.5q-40 0 -74.5 28t-34.5 74zM572 1614q0 43 32.5 73.5t76.5 30.5t76.5 -30t32.5 -74q0 -46 -34 -74t-75 -28t-75 28.5 t-34 73.5z" />
<glyph unicode="&#xcc;" horiz-adv-x="488" d="M-37 1702l108 136l321 -281l-76 -77zM131 0v1365h226v-1365h-226z" />
<glyph unicode="&#xcd;" horiz-adv-x="488" d="M127 1557l321 281l108 -136l-353 -222zM131 0v1365h226v-1365h-226z" />
<glyph unicode="&#xce;" horiz-adv-x="488" d="M-113 1501l357 275l358 -275l-178 -14l-180 122l-179 -122zM131 0v1365h226v-1365h-226z" />
<glyph unicode="&#xcf;" horiz-adv-x="488" d="M-24 1614q0 44 32.5 74t76.5 30q43 0 76 -29t33 -75q0 -45 -34 -73.5t-75 -28.5q-40 0 -74.5 28t-34.5 74zM131 0v1365h226v-1365h-226zM294 1614q0 43 32.5 73.5t76.5 30.5t76.5 -30t32.5 -74q0 -46 -34 -74t-75 -28t-75 28.5t-34 73.5z" />
<glyph unicode="&#xd0;" horiz-adv-x="1151" d="M16 619v171h116v575h307q340 0 483.5 -190t143.5 -471q0 -199 -61.5 -356t-188 -252.5t-360.5 -95.5h-324v619h-116zM358 181h94q197 0 286 136t89 365q0 502 -375 502h-94v-394h253v-171h-253v-438z" />
<glyph unicode="&#xd1;" horiz-adv-x="1151" d="M124 0v1365h266l449 -984v984h189v-1365h-211l-504 1093v-1093h-189zM289 1562q90 153 202 153q51 0 129 -45q74 -41 111 -41q48 0 91 75l85 -57q-89 -153 -204 -153q-53 0 -130 45q-70 40 -102 40q-49 0 -98 -74z" />
<glyph unicode="&#xd2;" horiz-adv-x="1152" d="M86 683q0 348 126 527.5t366 179.5q237 0 363 -178.5t126 -528.5t-125 -529t-363 -179q-239 0 -366 178.5t-127 529.5zM283 1702l108 136l321 -281l-76 -77zM323 683q0 -238 55 -380t201 -142q137 0 194 137.5t57 384.5q0 243 -56.5 382.5t-197.5 139.5t-197 -140 t-56 -382z" />
<glyph unicode="&#xd3;" horiz-adv-x="1152" d="M86 683q0 348 126 527.5t366 179.5q237 0 363 -178.5t126 -528.5t-125 -529t-363 -179q-239 0 -366 178.5t-127 529.5zM323 683q0 -238 55 -380t201 -142q137 0 194 137.5t57 384.5q0 243 -56.5 382.5t-197.5 139.5t-197 -140t-56 -382zM456 1557l321 281l108 -136 l-353 -222z" />
<glyph unicode="&#xd4;" horiz-adv-x="1152" d="M86 683q0 348 126 527.5t366 179.5q237 0 363 -178.5t126 -528.5t-125 -529t-363 -179q-239 0 -366 178.5t-127 529.5zM226 1501l357 275l358 -275l-178 -14l-180 122l-179 -122zM323 683q0 -238 55 -380t201 -142q137 0 194 137.5t57 384.5q0 243 -56.5 382.5 t-197.5 139.5t-197 -140t-56 -382z" />
<glyph unicode="&#xd5;" horiz-adv-x="1152" d="M86 683q0 348 126 527.5t366 179.5q237 0 363 -178.5t126 -528.5t-125 -529t-363 -179q-239 0 -366 178.5t-127 529.5zM283 1560q90 153 202 153q51 0 129 -45q74 -41 111 -41q48 0 91 75l85 -57q-89 -153 -204 -153q-53 0 -130 45q-70 40 -102 40q-49 0 -98 -74z M323 683q0 -238 55 -380t201 -142q137 0 194 137.5t57 384.5q0 243 -56.5 382.5t-197.5 139.5t-197 -140t-56 -382z" />
<glyph unicode="&#xd6;" horiz-adv-x="1152" d="M86 683q0 348 126 527.5t366 179.5q237 0 363 -178.5t126 -528.5t-125 -529t-363 -179q-239 0 -366 178.5t-127 529.5zM309 1604q0 44 32.5 74t76.5 30q43 0 76 -29t33 -75q0 -45 -34 -73.5t-75 -28.5q-40 0 -74.5 28t-34.5 74zM323 683q0 -238 55 -380t201 -142 q137 0 194 137.5t57 384.5q0 243 -56.5 382.5t-197.5 139.5t-197 -140t-56 -382zM627 1604q0 43 32.5 73.5t76.5 30.5t76.5 -30t32.5 -74q0 -46 -34 -74t-75 -28t-75 28.5t-34 73.5z" />
<glyph unicode="&#xd7;" d="M150 434l249 249l-249 249l123 123l249 -249l250 249l123 -123l-249 -249l249 -249l-123 -123l-250 248l-249 -248z" />
<glyph unicode="&#xd8;" horiz-adv-x="1151" d="M90 683q0 348 124.5 527.5t362.5 179.5q142 0 254 -70l58 121h144l-108 -215q135 -174 135 -543q0 -349 -123.5 -528.5t-356.5 -179.5q-70 0 -96.5 7t-154.5 57l-59 -122h-144l108 215q-144 169 -144 551zM308 683q0 -239 40 -352l387 832q-62 51 -157 51 q-153 0 -211.5 -141.5t-58.5 -389.5zM425 194q60 -43 150 -43q149 0 208 139.5t59 392.5q0 235 -34 335z" />
<glyph unicode="&#xd9;" horiz-adv-x="1116" d="M121 518v847h221v-847q0 -142 15 -209.5t68.5 -107t144.5 -39.5q86 0 134 32.5t68 92t20 235.5v843h203v-832q0 -200 -28.5 -308t-132 -179t-277.5 -71q-135 0 -234.5 44.5t-150.5 144t-51 354.5zM258 1702l108 136l321 -281l-76 -77z" />
<glyph unicode="&#xda;" horiz-adv-x="1116" d="M121 518v847h221v-847q0 -142 15 -209.5t68.5 -107t144.5 -39.5q86 0 134 32.5t68 92t20 235.5v843h203v-832q0 -200 -28.5 -308t-132 -179t-277.5 -71q-135 0 -234.5 44.5t-150.5 144t-51 354.5zM435 1557l321 281l108 -136l-353 -222z" />
<glyph unicode="&#xdb;" horiz-adv-x="1116" d="M121 518v847h221v-847q0 -142 15 -209.5t68.5 -107t144.5 -39.5q86 0 134 32.5t68 92t20 235.5v843h203v-832q0 -200 -28.5 -308t-132 -179t-277.5 -71q-135 0 -234.5 44.5t-150.5 144t-51 354.5zM201 1501l357 275l358 -275l-178 -14l-180 122l-179 -122z" />
<glyph unicode="&#xdc;" horiz-adv-x="1116" d="M121 518v847h221v-847q0 -142 15 -209.5t68.5 -107t144.5 -39.5q86 0 134 32.5t68 92t20 235.5v843h203v-832q0 -200 -28.5 -308t-132 -179t-277.5 -71q-135 0 -234.5 44.5t-150.5 144t-51 354.5zM299 1604q0 44 32.5 74t76.5 30q43 0 76 -29t33 -75q0 -45 -34 -73.5 t-75 -28.5q-40 0 -74.5 28t-34.5 74zM617 1604q0 43 32.5 73.5t76.5 30.5t76.5 -30t32.5 -74q0 -46 -34 -74t-75 -28t-75 28.5t-34 73.5z" />
<glyph unicode="&#xdd;" horiz-adv-x="837" d="M-65 1365h245l251 -569l255 569h216l-379 -788v-577h-225v577zM300 1557l321 281l108 -136l-353 -222z" />
<glyph unicode="&#xde;" horiz-adv-x="1012" d="M131 0v1365h226v-211h112q164 0 265 -31.5t169 -136.5t68 -249q0 -136 -56 -233t-150.5 -140t-290.5 -43h-117v-321h-226zM357 502h112q150 0 207.5 56t57.5 183q0 93 -38 151.5t-83.5 72.5t-143.5 14h-112v-477z" />
<glyph unicode="&#xdf;" horiz-adv-x="1047" d="M16 749v167h119q0 124 14 202.5t67 154t142 118t200 42.5q151 0 243.5 -83t92.5 -207q0 -233 -328 -313q10 -36 141 -98q190 -89 248.5 -180t58.5 -201q0 -167 -100 -271.5t-270 -104.5q-94 0 -198 38l52 152q79 -33 150 -33q78 0 123.5 51.5t45.5 133.5q0 83 -41 129 t-156 109q-118 66 -160 120t-42 122q0 50 26 123q250 47 250 200q0 73 -44.5 117.5t-119.5 44.5q-69 0 -114 -43t-58.5 -109.5t-13.5 -209.5v-1014h-209v843h-119z" />
<glyph unicode="&#xe0;" horiz-adv-x="942" d="M72 267q0 165 113.5 261t393.5 96q14 0 44 -1v41q0 108 -32.5 163t-116.5 55q-137 0 -164 -158l-201 25q20 135 124.5 210t256.5 75q136 0 217.5 -54.5t102.5 -129.5t21 -227v-344q0 -209 18 -279h-197q-13 55 -13 168q-95 -193 -284 -193q-128 0 -205.5 78.5 t-77.5 213.5zM198 1353l108 136l321 -281l-76 -77zM290 283q0 -155 135 -155q79 0 138.5 84t59.5 231v49q-40 4 -61 4q-272 0 -272 -213z" />
<glyph unicode="&#xe1;" horiz-adv-x="942" d="M72 267q0 165 113.5 261t393.5 96q14 0 44 -1v41q0 108 -32.5 163t-116.5 55q-137 0 -164 -158l-201 25q20 135 124.5 210t256.5 75q136 0 217.5 -54.5t102.5 -129.5t21 -227v-344q0 -209 18 -279h-197q-13 55 -13 168q-95 -193 -284 -193q-128 0 -205.5 78.5 t-77.5 213.5zM290 283q0 -155 135 -155q79 0 138.5 84t59.5 231v49q-40 4 -61 4q-272 0 -272 -213zM355 1208l321 281l108 -136l-353 -222z" />
<glyph unicode="&#xe2;" horiz-adv-x="942" d="M72 267q0 165 113.5 261t393.5 96q14 0 44 -1v41q0 108 -32.5 163t-116.5 55q-137 0 -164 -158l-201 25q20 135 124.5 210t256.5 75q136 0 217.5 -54.5t102.5 -129.5t21 -227v-344q0 -209 18 -279h-197q-13 55 -13 168q-95 -193 -284 -193q-128 0 -205.5 78.5 t-77.5 213.5zM105 1152l357 275l358 -275l-178 -14l-180 122l-179 -122zM290 283q0 -155 135 -155q79 0 138.5 84t59.5 231v49q-40 4 -61 4q-272 0 -272 -213z" />
<glyph unicode="&#xe3;" horiz-adv-x="942" d="M72 267q0 165 113.5 261t393.5 96q14 0 44 -1v41q0 108 -32.5 163t-116.5 55q-137 0 -164 -158l-201 25q20 135 124.5 210t256.5 75q136 0 217.5 -54.5t102.5 -129.5t21 -227v-344q0 -209 18 -279h-197q-13 55 -13 168q-95 -193 -284 -193q-128 0 -205.5 78.5 t-77.5 213.5zM183 1227q90 153 202 153q51 0 129 -45q74 -41 111 -41q48 0 91 75l85 -57q-89 -153 -204 -153q-53 0 -130 45q-70 40 -102 40q-49 0 -98 -74zM290 283q0 -155 135 -155q79 0 138.5 84t59.5 231v49q-40 4 -61 4q-272 0 -272 -213z" />
<glyph unicode="&#xe4;" horiz-adv-x="942" d="M72 267q0 165 113.5 261t393.5 96q14 0 44 -1v41q0 108 -32.5 163t-116.5 55q-137 0 -164 -158l-201 25q20 135 124.5 210t256.5 75q136 0 217.5 -54.5t102.5 -129.5t21 -227v-344q0 -209 18 -279h-197q-13 55 -13 168q-95 -193 -284 -193q-128 0 -205.5 78.5 t-77.5 213.5zM219 1265q0 44 32.5 74t76.5 30q43 0 76 -29t33 -75q0 -45 -34 -73.5t-75 -28.5q-40 0 -74.5 28t-34.5 74zM290 283q0 -155 135 -155q79 0 138.5 84t59.5 231v49q-40 4 -61 4q-272 0 -272 -213zM537 1265q0 43 32.5 73.5t76.5 30.5t76.5 -30t32.5 -74 q0 -46 -34 -74t-75 -28t-75 28.5t-34 73.5z" />
<glyph unicode="&#xe5;" horiz-adv-x="942" d="M72 267q0 165 113.5 261t393.5 96q14 0 44 -1v41q0 108 -32.5 163t-116.5 55q-137 0 -164 -158l-201 25q20 135 124.5 210t256.5 75q136 0 217.5 -54.5t102.5 -129.5t21 -227v-344q0 -209 18 -279h-197q-13 55 -13 168q-95 -193 -284 -193q-128 0 -205.5 78.5 t-77.5 213.5zM290 283q0 -155 135 -155q79 0 138.5 84t59.5 231v49q-40 4 -61 4q-272 0 -272 -213zM298 1301q0 80 56 135t132 55t132 -55t56 -135q0 -81 -58.5 -134t-129.5 -53q-70 0 -129 52.5t-59 134.5zM400 1302q0 -38 26.5 -62.5t59.5 -24.5t59.5 24.5t26.5 61.5 q0 38 -25.5 64t-60.5 26q-34 0 -60 -25.5t-26 -63.5z" />
<glyph unicode="&#xe6;" horiz-adv-x="1430" d="M72 266q0 128 65.5 213t176 115t299.5 30l1 53q0 205 -151 205q-135 0 -165 -161l-191 25q20 137 118 212.5t249 75.5q191 0 269 -124q98 119 270 119q154 0 258.5 -131.5t108.5 -423.5h-566q0 -201 55 -271.5t140 -70.5q135 0 173 187l186 -25q-66 -319 -362 -319 q-214 0 -306 190q-112 -190 -332 -190q-150 0 -223 87t-73 204zM286 282q0 -154 131 -154q87 0 142.5 83.5t55.5 227.5q0 18 -2 54q-37 4 -58 4q-269 0 -269 -215zM817 615h352q-7 267 -171 267q-161 0 -181 -267z" />
<glyph unicode="&#xe7;" horiz-adv-x="837" d="M73 501q0 262 101 397.5t294 135.5q311 0 355 -364l-201 -22q-15 132 -51 176.5t-102 44.5q-93 0 -135 -85.5t-42 -300.5q0 -336 177 -336q136 0 153 219l201 -18q-25 -200 -113 -283t-240 -89l-24 -71h28q91 0 133 -44t42 -102q0 -71 -56.5 -119t-148.5 -48 q-98 0 -197 63l28 75q83 -39 150 -39q82 0 82 63q0 78 -123 78q-16 0 -61 -2l53 151q-303 59 -303 520z" />
<glyph unicode="&#xe8;" horiz-adv-x="907" d="M73 490q0 260 110 402t294 142q129 0 217 -71t124 -186.5t39 -302.5h-571q0 -205 55.5 -273.5t139.5 -68.5q140 0 177 189l190 -25q-75 -321 -374 -321q-183 0 -292 131t-109 384zM209 1353l108 136l321 -281l-76 -77zM291 615h353q0 267 -174 267q-163 0 -179 -267z" />
<glyph unicode="&#xe9;" horiz-adv-x="907" d="M73 490q0 260 110 402t294 142q129 0 217 -71t124 -186.5t39 -302.5h-571q0 -205 55.5 -273.5t139.5 -68.5q140 0 177 189l190 -25q-75 -321 -374 -321q-183 0 -292 131t-109 384zM291 615h353q0 267 -174 267q-163 0 -179 -267zM316 1208l321 281l108 -136l-353 -222z " />
<glyph unicode="&#xea;" horiz-adv-x="907" d="M73 490q0 260 110 402t294 142q129 0 217 -71t124 -186.5t39 -302.5h-571q0 -205 55.5 -273.5t139.5 -68.5q140 0 177 189l190 -25q-75 -321 -374 -321q-183 0 -292 131t-109 384zM120 1152l357 275l358 -275l-178 -14l-180 122l-179 -122zM291 615h353q0 267 -174 267 q-163 0 -179 -267z" />
<glyph unicode="&#xeb;" horiz-adv-x="907" d="M73 490q0 260 110 402t294 142q129 0 217 -71t124 -186.5t39 -302.5h-571q0 -205 55.5 -273.5t139.5 -68.5q140 0 177 189l190 -25q-75 -321 -374 -321q-183 0 -292 131t-109 384zM209 1265q0 44 32.5 74t76.5 30q43 0 76 -29t33 -75q0 -45 -34 -73.5t-75 -28.5 q-40 0 -74.5 28t-34.5 74zM291 615h353q0 267 -174 267q-163 0 -179 -267zM527 1265q0 43 32.5 73.5t76.5 30.5t76.5 -30t32.5 -74q0 -46 -34 -74t-75 -28t-75 28.5t-34 73.5z" />
<glyph unicode="&#xec;" horiz-adv-x="454" d="M-41 1353l108 136l321 -281l-76 -77zM123 0v1010h208v-1010h-208z" />
<glyph unicode="&#xed;" horiz-adv-x="454" d="M66 1208l321 281l108 -136l-353 -222zM123 0v1010h208v-1010h-208z" />
<glyph unicode="&#xee;" horiz-adv-x="454" d="M-130 1152l357 275l358 -275l-178 -14l-180 122l-179 -122zM122 0v1010h208v-1010h-208z" />
<glyph unicode="&#xef;" horiz-adv-x="454" d="M-41 1265q0 44 32.5 74t76.5 30q43 0 76 -29t33 -75q0 -45 -34 -73.5t-75 -28.5q-40 0 -74.5 28t-34.5 74zM123 0v1010h208v-1010h-208zM277 1265q0 43 32.5 73.5t76.5 30.5t76.5 -30t32.5 -74q0 -46 -34 -74t-75 -28t-75 28.5t-34 73.5z" />
<glyph unicode="&#xf0;" horiz-adv-x="907" d="M56 505q0 262 100 395.5t246 133.5q80 0 142 -52q-49 117 -91 191l-136 -82l-56 92l140 84l-63 112l132 81l70 -109l130 78l56 -92l-129 -78q133 -224 193.5 -401t60.5 -366q0 -249 -102 -383t-291 -134q-162 0 -248 78t-120 194t-34 258zM278 505q0 -190 41 -281 t135 -91q93 0 134.5 92.5t41.5 279.5q0 213 -47.5 292.5t-128.5 79.5q-176 0 -176 -372z" />
<glyph unicode="&#xf1;" horiz-adv-x="942" d="M123 0v1010h193v-156q70 180 250 180q102 0 164.5 -49t79 -117.5t16.5 -216.5v-651h-208v640q0 132 -23 179.5t-98 47.5q-78 0 -121.5 -60.5t-43.5 -240.5v-566h-209zM159 1227q90 153 202 153q51 0 129 -45q74 -41 111 -41q48 0 91 75l85 -57q-89 -153 -204 -153 q-53 0 -130 45q-70 40 -102 40q-49 0 -98 -74z" />
<glyph unicode="&#xf2;" horiz-adv-x="942" d="M73 505q0 529 400 529q182 0 288.5 -129t106.5 -390q0 -540 -400 -540q-184 0 -289.5 130.5t-105.5 399.5zM205 1353l108 136l321 -281l-76 -77zM295 505q0 -190 41 -281t135 -91q93 0 134.5 92.5t41.5 279.5q0 213 -47.5 292.5t-128.5 79.5q-176 0 -176 -372z" />
<glyph unicode="&#xf3;" horiz-adv-x="942" d="M73 505q0 529 400 529q182 0 288.5 -129t106.5 -390q0 -540 -400 -540q-184 0 -289.5 130.5t-105.5 399.5zM295 505q0 -190 41 -281t135 -91q93 0 134.5 92.5t41.5 279.5q0 213 -47.5 292.5t-128.5 79.5q-176 0 -176 -372zM312 1208l321 281l108 -136l-353 -222z" />
<glyph unicode="&#xf4;" horiz-adv-x="942" d="M73 505q0 529 400 529q182 0 288.5 -129t106.5 -390q0 -540 -400 -540q-184 0 -289.5 130.5t-105.5 399.5zM116 1152l357 275l358 -275l-178 -14l-180 122l-179 -122zM295 505q0 -190 41 -281t135 -91q93 0 134.5 92.5t41.5 279.5q0 213 -47.5 292.5t-128.5 79.5 q-176 0 -176 -372z" />
<glyph unicode="&#xf5;" horiz-adv-x="942" d="M73 505q0 529 400 529q182 0 288.5 -129t106.5 -390q0 -540 -400 -540q-184 0 -289.5 130.5t-105.5 399.5zM182 1227q90 153 202 153q51 0 129 -45q74 -41 111 -41q48 0 91 75l85 -57q-89 -153 -204 -153q-53 0 -130 45q-70 40 -102 40q-49 0 -98 -74zM295 505 q0 -190 41 -281t135 -91q93 0 134.5 92.5t41.5 279.5q0 213 -47.5 292.5t-128.5 79.5q-176 0 -176 -372z" />
<glyph unicode="&#xf6;" horiz-adv-x="942" d="M73 505q0 529 400 529q182 0 288.5 -129t106.5 -390q0 -540 -400 -540q-184 0 -289.5 130.5t-105.5 399.5zM205 1265q0 44 32.5 74t76.5 30q43 0 76 -29t33 -75q0 -45 -34 -73.5t-75 -28.5q-40 0 -74.5 28t-34.5 74zM295 505q0 -190 41 -281t135 -91q93 0 134.5 92.5 t41.5 279.5q0 213 -47.5 292.5t-128.5 79.5q-176 0 -176 -372zM523 1265q0 43 32.5 73.5t76.5 30.5t76.5 -30t32.5 -74q0 -46 -34 -74t-75 -28t-75 28.5t-34 73.5z" />
<glyph unicode="&#xf7;" d="M104 599v167h837v-167h-837zM421 270v227h203v-227h-203zM421 868v227h203v-227h-203z" />
<glyph unicode="&#xf8;" horiz-adv-x="942" d="M73 505q0 255 99.5 392t293.5 137q117 0 200 -45l56 111h121l-91 -182q116 -135 116 -404q0 -539 -395 -539q-101 0 -185 38l-59 -119h-121l93 185q-128 139 -128 426zM269 505q0 -158 31 -259l285 611q-44 28 -111 28q-111 0 -158 -94t-47 -286zM370 145q53 -21 97 -21 q115 0 160 98t45 283q0 124 -24 236z" />
<glyph unicode="&#xf9;" horiz-adv-x="943" d="M116 364v646h209v-642q0 -134 22 -179.5t97 -45.5q93 0 130 81t37 300v486h208v-1010h-191v152q-81 -177 -257 -177q-90 0 -147.5 38t-82.5 108t-25 243zM200 1353l108 136l321 -281l-76 -77z" />
<glyph unicode="&#xfa;" horiz-adv-x="942" d="M116 364v646h209v-642q0 -134 22 -179.5t97 -45.5q93 0 130 81t37 300v486h208v-1010h-191v152q-81 -177 -257 -177q-90 0 -147.5 38t-82.5 108t-25 243zM307 1208l321 281l108 -136l-353 -222z" />
<glyph unicode="&#xfb;" horiz-adv-x="943" d="M114 1152l357 275l358 -275l-178 -14l-180 122l-179 -122zM116 364v646h209v-642q0 -134 22 -179.5t97 -45.5q93 0 130 81t37 300v486h208v-1010h-191v152q-81 -177 -257 -177q-90 0 -147.5 38t-82.5 108t-25 243z" />
<glyph unicode="&#xfc;" horiz-adv-x="942" d="M116 364v646h209v-642q0 -134 22 -179.5t97 -45.5q93 0 130 81t37 300v486h208v-1010h-191v152q-81 -177 -257 -177q-90 0 -147.5 38t-82.5 108t-25 243zM203 1265q0 44 32.5 74t76.5 30q43 0 76 -29t33 -75q0 -45 -34 -73.5t-75 -28.5q-40 0 -74.5 28t-34.5 74z M521 1265q0 43 32.5 73.5t76.5 30.5t76.5 -30t32.5 -74q0 -46 -34 -74t-75 -28t-75 28.5t-34 73.5z" />
<glyph unicode="&#xfd;" horiz-adv-x="733" d="M-1 1010h209l176 -694l181 694h188l-328 -1074q-36 -117 -66 -173t-85 -90.5t-142 -34.5q-52 0 -107 14v166q40 -7 73 -7q81 0 115 39.5t73 183.5zM214 1208l321 281l108 -136l-353 -222z" />
<glyph unicode="&#xfe;" horiz-adv-x="977" d="M122 -342v1707h207v-511q81 173 240 173q146 0 241 -132t95 -382q0 -221 -85.5 -376t-265.5 -155q-142 0 -223 123l-2 -447h-207zM329 422q0 -97 14.5 -151.5t59.5 -93t102 -38.5q178 0 178 374q0 362 -168 362q-80 0 -133 -86t-53 -199v-168z" />
<glyph unicode="&#xff;" horiz-adv-x="733" d="M-1 1010h209l176 -694l181 694h188l-328 -1074q-36 -117 -66 -173t-85 -90.5t-142 -34.5q-52 0 -107 14v166q40 -7 73 -7q81 0 115 39.5t73 183.5zM112 1265q0 44 32.5 74t76.5 30q43 0 76 -29t33 -75q0 -45 -34 -73.5t-75 -28.5q-40 0 -74.5 28t-34.5 74zM430 1265 q0 43 32.5 73.5t76.5 30.5t76.5 -30t32.5 -74q0 -46 -34 -74t-75 -28t-75 28.5t-34 73.5z" />
<glyph unicode="&#x152;" horiz-adv-x="1640" d="M85 676q0 362 136 538t356 176q164 0 266 -139v114h772v-181h-568v-390h446v-182h-446v-427h573v-185h-785v126q-96 -152 -267 -152q-214 0 -348.5 179.5t-134.5 522.5zM325 654q0 -492 272 -492q167 0 233 184v693q-74 164 -235 164q-158 0 -214 -149.5t-56 -399.5z" />
<glyph unicode="&#x153;" horiz-adv-x="1465" d="M73 505q0 253 98 391t291 138q195 0 293 -151q108 151 283 151q173 0 272.5 -127t103.5 -433h-567q0 -208 56 -275t138 -67q138 0 176 189l190 -25q-76 -321 -373 -321q-186 0 -292 150q-100 -150 -280 -150t-284.5 130.5t-104.5 399.5zM295 505q0 -190 40.5 -281 t132.5 -91q89 0 130.5 88.5t41.5 283.5t-42 283.5t-131 88.5t-130.5 -90t-41.5 -282zM852 615h350q2 138 -46 202.5t-125 64.5q-161 0 -179 -267z" />
<glyph unicode="&#x178;" horiz-adv-x="837" d="M-65 1365h245l251 -569l255 569h216l-379 -788v-577h-225v577zM162 1604q0 44 32.5 74t76.5 30q43 0 76 -29t33 -75q0 -45 -34 -73.5t-75 -28.5q-40 0 -74.5 28t-34.5 74zM480 1604q0 43 32.5 73.5t76.5 30.5t76.5 -30t32.5 -74q0 -46 -34 -74t-75 -28t-75 28.5t-34 73.5 z" />
<glyph unicode="&#x2c6;" horiz-adv-x="1024" d="M155 1152l357 275l358 -275l-178 -14l-180 122l-179 -122z" />
<glyph unicode="&#x2dc;" horiz-adv-x="1024" d="M203 1227q90 153 202 153q51 0 129 -45q74 -41 111 -41q48 0 91 75l85 -57q-89 -153 -204 -153q-53 0 -130 45q-70 40 -102 40q-49 0 -98 -74z" />
<glyph unicode="&#x2000;" horiz-adv-x="923" />
<glyph unicode="&#x2001;" horiz-adv-x="1846" />
<glyph unicode="&#x2002;" horiz-adv-x="923" />
<glyph unicode="&#x2003;" horiz-adv-x="1846" />
<glyph unicode="&#x2004;" horiz-adv-x="615" />
<glyph unicode="&#x2005;" horiz-adv-x="461" />
<glyph unicode="&#x2006;" horiz-adv-x="307" />
<glyph unicode="&#x2007;" horiz-adv-x="307" />
<glyph unicode="&#x2008;" horiz-adv-x="230" />
<glyph unicode="&#x2009;" horiz-adv-x="369" />
<glyph unicode="&#x200a;" horiz-adv-x="102" />
<glyph unicode="&#x2010;" horiz-adv-x="593" d="M80 429v167h432v-167h-432z" />
<glyph unicode="&#x2011;" horiz-adv-x="593" d="M80 429v167h432v-167h-432z" />
<glyph unicode="&#x2012;" horiz-adv-x="593" d="M80 429v167h432v-167h-432z" />
<glyph unicode="&#x2013;" d="M170 432v161h706v-161h-706z" />
<glyph unicode="&#x2014;" horiz-adv-x="1291" d="M63 432v161h1165v-161h-1165z" />
<glyph unicode="&#x2018;" horiz-adv-x="453" d="M108 885v248l138 256h100l-117 -250h97v-254h-218z" />
<glyph unicode="&#x2019;" horiz-adv-x="453" d="M108 862l117 249h-97v254h218v-247l-139 -256h-99z" />
<glyph unicode="&#x201a;" horiz-adv-x="454" d="M108 -249l117 249h-97v254h218v-248l-139 -255h-99z" />
<glyph unicode="&#x201c;" horiz-adv-x="768" d="M111 885v248l138 256h100l-117 -250h97v-254h-218zM418 885v248l138 256h99l-116 -250h96v-254h-217z" />
<glyph unicode="&#x201d;" horiz-adv-x="768" d="M111 862l117 249h-97v254h218v-247l-139 -256h-99zM418 862l117 249h-97v254h217v-247l-138 -256h-99z" />
<glyph unicode="&#x201e;" horiz-adv-x="768" d="M111 -249l117 249h-97v254h218v-248l-139 -255h-99zM418 -249l117 249h-97v254h217v-248l-138 -255h-99z" />
<glyph unicode="&#x2022;" horiz-adv-x="1365" d="M401 696q0 118 82.5 202t199.5 84q116 0 198.5 -84t82.5 -202q0 -117 -82.5 -201.5t-198.5 -84.5q-119 0 -200.5 84.5t-81.5 201.5z" />
<glyph unicode="&#x2026;" horiz-adv-x="1466" d="M130 0v258h228v-258h-228zM619 0v258h228v-258h-228zM1108 0v258h228v-258h-228z" />
<glyph unicode="&#x202f;" horiz-adv-x="369" />
<glyph unicode="&#x2039;" horiz-adv-x="488" d="M89 525l193 328h117l-108 -328l108 -327h-117z" />
<glyph unicode="&#x203a;" horiz-adv-x="488" d="M89 198l108 327l-108 328h117l193 -328l-193 -327h-117z" />
<glyph unicode="&#x205f;" horiz-adv-x="461" />
<glyph unicode="&#x20ac;" d="M20 487v123h93q-2 21 -2 68q0 38 2 55h-93v123h101q67 535 469 535q171 0 280 -101.5t131 -285.5l-221 -29q-26 248 -190 248q-197 0 -232 -367h265v-123h-271l-2 -69q0 -39 2 -54h271v-123h-265q31 -344 228 -344q77 0 127.5 72t62.5 188l225 -28q-54 -400 -415 -400 q-400 0 -465 512h-101z" />
<glyph unicode="&#x2122;" horiz-adv-x="1465" d="M31 1203v121h500v-121h-175v-657h-152v657h-173zM592 546v778h223l144 -559l151 559h218v-778h-142v654l-177 -654h-121l-169 655v-655h-127z" />
<glyph unicode="&#x25fc;" horiz-adv-x="1010" d="M0 0v1010h1010v-1010h-1010z" />
<glyph unicode="&#xfb01;" horiz-adv-x="977" d="M21 842v168h132q3 181 31.5 249.5t90.5 107t174 38.5q50 0 97 -8v-167q-27 4 -52 4q-65 0 -94.5 -22.5t-36 -56t-6.5 -145.5h177v-168h-177v-842h-204v842h-132zM642 1146v221h218v-221h-218zM646 0v1010h209v-1010h-209z" />
<glyph unicode="&#xfb02;" horiz-adv-x="977" d="M20 842v168h132q3 181 31.5 249.5t90.5 107t174 38.5q50 0 97 -8v-167q-27 4 -52 4q-65 0 -94.5 -22.5t-36 -56t-6.5 -145.5h177v-168h-177v-842h-204v842h-132zM645 0v1365h209v-1365h-209z" />
</font>
</defs>
</svg>
